An Affair to Die For 2019 HDRip AC3 X264 Torrent Free Download

Seeders : 519   &   Leechers : 416      11-02-2019 (1 week)
An Affair to Die For 2019 HDRip AC3 X264 Torrent Download
Added: ago by LifeLongg ***** in Movies   854.7 MB   Hits : 18
Info Hash: 2325578D4C222075F6B0EF0AFED64211B51C2425 Download
An Affair to Die For 2019 HDRip AC3 X264 Torrent Download

Anonymous and Direct Download movies , software , shows...

Fast Safe Anonymous
movies, software, shows...
An Affair to Die For
N/A   .   82 min   N/A/10
Director : Víctor García  
Writer: Elliott San  
Tags: An  Affair  to  Die  For  2019  

Released:
01 Feb 2019
A secret rendezvous. A man cheats on his wife. A woman cheats on her husband. And then everything goes bad, quickly.

Torrent Description



Quote:




******************************Thumbnail:**********************



******************************Screenshots:********************

Screenshot 1

Screenshot 2

Screenshot 3

Screenshot 4

Screenshot 5

Screenshot 6

Screenshot 7

Screenshot 8

Screenshot 9

Screenshot 0


******************************************************

18+.An.Affair.to.Die.For.2019.HDRip.AC3.X264.LLG.mp4
Format : MPEG-4
Format profile : Base Media
Codec ID : isom (isom/iso2/avc1/mp41)
File size : 837 MiB
Duration : 1 h 22 min
Overall bit rate mode : Variable
Overall bit rate : 1 414 kb/s


Video
ID : 1
Format : AVC
Format/Info : Advanced Video Codec
Format profile : [email protected]
Format settings : CABAC / 1 Ref Frames
Format settings, CABAC : Yes
Format settings, RefFrames : 1 frame
Codec ID : avc1
Codec ID/Info : Advanced Video Coding
Duration : 1 h 22 min
Bit rate mode : Variable
Bit rate : 1 027 kb/s
Maximum bit rate : 3 600 kb/s
Width : 720 pixels
Height : 304 pixels
Display aspect ratio : 2.35:1
Frame rate mode : Constant
Frame rate : 23.976 (23976/1000) FPS
Color space : YUV
Chroma subsampling : 4:2:0
Bit depth : 8 bits
Scan type : Progressive
Bits/(Pixel*Frame) : 0.196
Stream size : 607 MiB (73%)


Audio
ID : 2
Format : AC-3
Format/Info : Audio Coding 3
Commercial name : Dolby Digital
Codec ID : ac-3
Duration : 1 h 22 min
Bit rate mode : Constant
Bit rate : 384 kb/s
Channel(s) : 6 channels
Channel layout : L R C LFE Ls Rs
Sampling rate : 48.0 kHz
Frame rate : 31.250 FPS (1536 SPF)
Bit depth : 16 bits
Compression mode : Lossy
Stream size : 227 MiB (27%)
Language : English
Service kind : Complete Main
Default : Yes
Alternate group : 1


********************************************************





Sharing Widget


No Comments For This Torrent . Be The First to Comment

You must Login to Comment . Click Here to Login

Menu 1

Some content in menu 1.

An Affair to Die For 2019 HDRip AC3 X264 LLG (Size: 854.7 MB)
  An Affair to Die For 2019 HDRip AC3 X264 LLG 854.7 MB
tracker name
udp://tracker.leechers-paradise.org:6969/announce
udp://zer0day.ch:1337/announce
udp://open.demonii.com:1337/announce
udp://tracker.coppersurfer.tk:6969/announce
udp://exodus.desync.com:6969/announce
µTorrent compatible trackers list

Relative Torrents

Torrent Name Size Age SEED LEECH
Johan 1996-2018 5 Albums
Posted by    hades09   in   Music
1.4 GB 2 minutes 338 551
Dedicated To The One I Love[3CD][320[201][BuRnOuT320]
Posted by    BuRnOuT320   in   Music
339.7 MB 2 minutes 894 902
Ben is Back 2019 HDRip XViD-ETRG
Posted by    ETRG   in   Movies
706.1 MB 2 minutes 262 532
Windows Server 2012 R2 AIO 18in1 Februar 2019 ~ APKGOD
Posted by    apkgod   in   Applications
4.6 GB 8 minutes 59 255
The Rookie S01E10 HDTV x264-KILLERS [ezt]
Posted by    EZTVag   in   TV
309.1 MB 8 minutes 763 479