The Unicorn 2019 HDRip XviD AC3 LLG Torrent Free Download

Seeders : 248   &   Leechers : 803      11-02-2019 (1 week)
The Unicorn 2019 HDRip XviD AC3 LLG Torrent Download
Added: ago by LifeLongg ***** in Movies   1,022.0 MB   Hits : 17
Info Hash: E32F3B82E314996318EF1BFAD1B8198142FA104B Download
The Unicorn 2019 HDRip XviD AC3 LLG Torrent Download

Anonymous and Direct Download movies , software , shows...

Fast Safe Anonymous
movies, software, shows...
The Unicorn
Comedy   .   88 min   6.6/10
Director : Robert Schwartzman  
Tags: The  Unicorn  2019  HDRip  XviD  AC3  

Released:
01 Feb 2019
An indecisive couple facing the fourth year of their engagement finally decides to take the next big step and have a threesome.

Torrent Description



Quote:




******************************Thumbnail:**********************



******************************Screenshots:********************

Screenshot 1

Screenshot 2

Screenshot 3

Screenshot 4

Screenshot 5

Screenshot 6

Screenshot 7

Screenshot 8

Screenshot 9

Screenshot 0


******************************************************

18+.The.Unicorn.2019.HDRip.XviD.AC3.LLG.mp4
Format : MPEG-4
Format profile : Base Media
Codec ID : isom (isom/iso2/avc1/mp41)
File size : 995 MiB
Duration : 1 h 29 min
Overall bit rate mode : Variable
Overall bit rate : 1 553 kb/s


Video
ID : 1
Format : AVC
Format/Info : Advanced Video Codec
Format profile : [email protected]
Format settings : CABAC / 1 Ref Frames
Format settings, CABAC : Yes
Format settings, RefFrames : 1 frame
Codec ID : avc1
Codec ID/Info : Advanced Video Coding
Duration : 1 h 29 min
Bit rate mode : Variable
Bit rate : 1 165 kb/s
Maximum bit rate : 3 600 kb/s
Width : 720 pixels
Height : 306 pixels
Display aspect ratio : 2.35:1
Frame rate mode : Constant
Frame rate : 23.976 (23976/1000) FPS
Color space : YUV
Chroma subsampling : 4:2:0
Bit depth : 8 bits
Scan type : Progressive
Bits/(Pixel*Frame) : 0.221
Stream size : 747 MiB (75%)


Audio
ID : 2
Format : AC-3
Format/Info : Audio Coding 3
Commercial name : Dolby Digital
Codec ID : ac-3
Duration : 1 h 29 min
Bit rate mode : Constant
Bit rate : 384 kb/s
Channel(s) : 6 channels
Channel layout : L R C LFE Ls Rs
Sampling rate : 48.0 kHz
Frame rate : 31.250 FPS (1536 SPF)
Bit depth : 16 bits
Compression mode : Lossy
Stream size : 246 MiB (25%)
Title : Surround
Language : English
Service kind : Complete Main
Default : Yes
Alternate group : 1



********************************************************





Sharing Widget


No Comments For This Torrent . Be The First to Comment

You must Login to Comment . Click Here to Login

Menu 1

Some content in menu 1.

The Unicorn 2019 HDRip XviD AC3 LLG (Size: 1,022.0 MB)
  The Unicorn 2019 HDRip XviD AC3 LLG 1,022.0 MB
tracker name
udp://tracker.leechers-paradise.org:6969/announce
udp://zer0day.ch:1337/announce
udp://open.demonii.com:1337/announce
udp://tracker.coppersurfer.tk:6969/announce
udp://exodus.desync.com:6969/announce
µTorrent compatible trackers list

Relative Torrents

Torrent Name Size Age SEED LEECH
Galaxy Lords 2019 HDRip XviD AC3-EVO[EtMvies]
Posted by    EtHD   in   Movies
1.4 GB 9 minutes 903 542
Galaxy Lords 2019 HDRip XviD AC3-EVO[TGx
Posted by    mazemaze16   in   Movies
1.4 GB 21 minutes 82 844
Moonnam Niyamam (2018) Malayalam - HDRip- x264 - 700MB - Mp3 - ESub - MovCr
Posted by    MovCr   in   Movies
712.9 MB 30 minutes 259 649
TechSmith Snagit v2019 1 1 Build 2860 + eygen(Win/Mac) ~ [APKGOD]
Posted by    apkgod   in   Applications
624.5 MB 34 minutes 100 238
Kala Shah Kala 2019 Punjabi Desi DVDSCR EW Rip x264 AAC CiNEVooD Exclusive
Posted by    xRls   in   Movies
1,015.0 MB 42 minutes 23 673